Shaolin Soccer 2001 (Đội Bóng Thiếu Lâm ) 720p BluRay DTS x264-EPiK – Châu Tinh Trì, Wei Zhao, Stephen Chow, Yat-fei Wong

12386148643 f852e93550 o Shaolin Soccer 2001 (Đội Bóng Thiếu Lâm ) 720p BluRay DTS x264 EPiK   Châu Tinh Trì, Wei Zhao, Stephen Chow, Yat fei Wong
Chroma subsampling : 4:2:0
Bit depth : 8 bits
Scan type : Progressive
Bits/(Pixel*Frame) : 0.343
Stream size : 5.82 GiB (89%)
Writing library : x264 core 76 r1271M 496d79d
Encoding settings : cabac=1 / ref=9 / deblock=1:-3:-3 / analyse=0x3:0x113 / me=umh / subme=9 / psy=1 / psy_rd=0.9:0.0 / mixed_ref=1 / me_range=24 / chroma_me=1 / trellis=2 / 8x8dct=1 / cqm=0 / deadzone=21,11 / chroma_qp_offset=-2 / threads=6 / nr=0 / decimate=1 / mbaff=0 / bframes=16 / b_pyramid=0 / b_adapt=1 / b_bias=0 / direct=3 / wpredb=1 / keyint=250 / keyint_min=25 / scenecut=40 / rc_lookahead=70 / rc=2pass / mbtree=1 / bitrate=7573 / ratetol=1.0 / qcomp=0.60 / qpmin=10 / qpmax=51 / qpstep=4 / cplxblur=20.0 / qblur=0.5 / ip_ratio=1.40 / aq=1:0.80
Language : English
Default : No
Forced : No

Audio
ID : 2
Format : DTS
Format/Info : Digital Theater Systems
Mode : 16
Format settings, Endianness : Big
Codec ID : A_DTS
Duration : 1h 52mn
Bit rate mode : Constant
Bit rate : 768 Kbps
Channel count : 6 channels
Channel positions : Front: L C R, Side: L R, LFE
Sampling rate : 48.0 KHz
Bit depth : 24 bits
Compression mode : Lossy
Stream size : 617 MiB (9%)
Language : Chinese
Default : Yes
Forced : No

Tinh vốn là một võ sư Thiếu Lâm bị thất lạc hết các huynh đệ sau cái chết của sư phụ. Trong hy vọng phát triển phong trào học võ Thiếu Lâm, Tinh quyết định mời lại năm người anh em của mình để thành lập Đội bóng Thiếu Lâm nhằm tranh chức vô địch của giải bóng đá Hồng Kông, giải đấu mà đội Cường hùng ma quỷ đã vô địch nhiều năm liên tiếp. Huấn luyện viên của Đội bóng Thiếu Lâm là Minh Phong, một cựu cầu thủ lừng danh ở Hồng Kông nhưng bị thân bại danh liệt sau một vụ bán độ ở chung kết. Để đi tới trận chung kết, Đội bóng Thiếu Lâm phải vượt qua nhiều đối thủ mạnh như đội bóng của cặp Ngọc diện song phi long với khả năng phối hợp siêu đẳng. Trong trận chung kết, đội Cường hùng ma quỷ chơi xấu khi cho tất cả các cầu thủ sử dụng doping tăng lực khiến các huynh đệ đội bóng Thiếu Lâm lâm vào tình trạng chấn thương và khó có thể thi đấu tiếp. Lúc này Tinh phải nhờ cậy tới A Mai, cô gái bán hàng ăn hâm mộ anh nhưng cũng có tuyệt kĩ Thái cực quyền.

http://www.fshare.vn/folder/TNTGWBSK9T

http://www.fshare.vn/file/T63M8JF2BT

Cùng Danh Mục:

Nội Dung Khác

Leave a Reply

Your email address will not be published. Required fields are marked *

You may use these HTML tags and attributes: <a href="" title=""> <abbr title=""> <acronym title=""> <b> <blockquote cite=""> <cite> <code> <del datetime=""> <em> <i> <q cite=""> <s> <strike> <strong>

Link Sopcast Xem Bong Da Xem Bong Da Online