The Warth Of Vajra 2013 – Tử Chiến Đài Hades – HDTV 720p x264-CHDTV ( Thích Hạng Vũ, Lưu Thừa Tuấn, Trương Nhã Mai)

vJHWP1v  The Warth Of Vajra 2013   Tử Chiến Đài Hades   HDTV 720p x264 CHDTV ( Thích Hạng Vũ, Lưu Thừa Tuấn, Trương Nhã Mai)

The Wrath of Vajra bộ phim võ thuật chắc chắn sẽ làm hài lòng những khán giả nào yêu thích thể loại này. Nội dung phim nói về Nhật Hoàng sau khi chiếm Trung Hoa vì muốn làm suy yếu niềm tin của dân và chứng minh sức mạnh của mình cho toàn thế giới nên đã xây dựng một Đài Hades và tập trung tất cả các cao thủ Nhật Hoàng và các chiến binh tinh nhuệ trên toàn thế giới quyết đấu sống còn tại đây, mà đối thủ lớn nhất của họ là Kim Cang Vương một đệ tử tục gia của Nam Thiếu Lâm Tự và cũng chính là đồng môn người sáng lập ra giáo đài Hades.


L5b7h  The Warth Of Vajra 2013   Tử Chiến Đài Hades   HDTV 720p x264 CHDTV ( Thích Hạng Vũ, Lưu Thừa Tuấn, Trương Nhã Mai)
Ihzl2  The Warth Of Vajra 2013   Tử Chiến Đài Hades   HDTV 720p x264 CHDTV ( Thích Hạng Vũ, Lưu Thừa Tuấn, Trương Nhã Mai)
YojDB  The Warth Of Vajra 2013   Tử Chiến Đài Hades   HDTV 720p x264 CHDTV ( Thích Hạng Vũ, Lưu Thừa Tuấn, Trương Nhã Mai)
5ut76  The Warth Of Vajra 2013   Tử Chiến Đài Hades   HDTV 720p x264 CHDTV ( Thích Hạng Vũ, Lưu Thừa Tuấn, Trương Nhã Mai)
v5h0K  The Warth Of Vajra 2013   Tử Chiến Đài Hades   HDTV 720p x264 CHDTV ( Thích Hạng Vũ, Lưu Thừa Tuấn, Trương Nhã Mai)
GFsBH  The Warth Of Vajra 2013   Tử Chiến Đài Hades   HDTV 720p x264 CHDTV ( Thích Hạng Vũ, Lưu Thừa Tuấn, Trương Nhã Mai)

 

Afternoon.Delight.2013.BluRay.1080p.DTS.x264-CHD
General
Unique ID : 203645266408509800778597398849745396879 (0x9934A6D33F73A5AEAB8F383C7B35248F)
Complete name : D:CCTV6.The.Warth.Of.Vajra.2013.HDTV.720p.x264-CHDTV.mkv
Format : Matroska
Format version : Version 4 / Version 2
File size : 4.56 GiB
Duration : 1h 41mn
Overall bit rate : 6 446 Kbps
Encoded date : UTC 2014-02-23 13:33:19
Writing application : mkvmerge v6.3.0 (‘You can’t stop me!’) built on Jun 28 2013 20:09:41
Writing library : libebml v1.3.0 + libmatroska v1.4.0

Video
ID : 1
Format : AVC
Format/Info : Advanced Video Codec
Format profile : High@L4.1
Format settings, CABAC : Yes
Format settings, ReFrames : 5 frames
Codec ID : V_MPEG4/ISO/AVC
Duration : 1h 41mn
Bit rate : 6 000 Kbps
Width : 1 280 pixels
Height : 720 pixels
Display aspect ratio : 16:9
Frame rate mode : Constant
Frame rate : 25.000 fps
Color space : YUV
Chroma subsampling : 4:2:0
Bit depth : 8 bits
Scan type : Progressive
Bits/(Pixel*Frame) : 0.260
Stream size : 4.15 GiB (91%)
Writing library : x264 core 133 r2334 a3ac64b
Encoding settings : cabac=1 / ref=5 / deblock=1:-3:-3 / analyse=0x3:0x113 / me=umh / subme=7 / psy=1 / psy_rd=1.00:0.00 / mixed_ref=1 / me_range=16 / chroma_me=1 / trellis=1 / 8x8dct=1 / cqm=0 / deadzone=21,11 / fast_pskip=0 / chroma_qp_offset=-2 / threads=12 / lookahead_threads=2 / sliced_threads=0 / nr=0 / decimate=1 / interlaced=0 / bluray_compat=0 / constrained_intra=0 / bframes=3 / b_pyramid=2 / b_adapt=2 / b_bias=0 / direct=3 / weightb=1 / open_gop=0 / weightp=2 / keyint=250 / keyint_min=25 / scenecut=40 / intra_refresh=0 / rc_lookahead=50 / rc=2pass / mbtree=1 / bitrate=6000 / ratetol=1.0 / qcomp=0.70 / qpmin=0 / qpmax=69 / qpstep=4 / cplxblur=20.0 / qblur=0.5 / vbv_maxrate=14000 / vbv_bufsize=14000 / nal_hrd=none / ip_ratio=1.40 / aq=1:1.00
Language : English
Default : Yes
Forced : No

Audio
ID : 2
Format : AC-3
Format/Info : Audio Coding 3
Mode extension : CM (complete main)
Format settings, Endianness : Big
Codec ID : A_AC3
Duration : 1h 41mn
Bit rate mode : Constant
Bit rate : 448 Kbps
Channel(s) : 2 channels
Channel positions : Front: L R
Sampling rate : 48.0 KHz
Bit depth : 16 bits
Compression mode : Lossy
Delay relative to video : 32ms
Stream size : 324 MiB (7%)
Default : Yes
Forced : No

http://www.fshare.vn/file/TVNVGYJKDT/

http://subscene.com/subtitles/the-wrath-of-vajra

Cùng Danh Mục:

Nội Dung Khác

Leave a Reply

Your email address will not be published. Required fields are marked *

You may use these HTML tags and attributes: <a href="" title=""> <abbr title=""> <acronym title=""> <b> <blockquote cite=""> <cite> <code> <del datetime=""> <em> <i> <q cite=""> <s> <strike> <strong>

Link Sopcast Xem Bong Da Xem Bong Da Online